Skip to main content

McCabe and Mrs Miller Live at Pappy & Harriet's (indoor stage) on 2011-09-15

Audio Preview

etree
McCabe and Mrs Miller Live at Pappy & Harriet's (indoor stage) on 2011-09-15




01. intro
02. Love Of My Dreams
03. Toe In The Water
04. Red Wine and Chocolate
05. Farm Boy Blues
06. The Cock Crows At Sunrise
07. Red Ribbons
08. Time For Leaving
09. I Need Your Love So Bad *
10. Love That Burns &


* - Little Willie John
& - Peter Green's Fleetwood Mac


Collection McCabeandMrsMiller
Band/Artist McCabe and Mrs Miller
Venue Pappy & Harriet's (indoor stage)
Location Pioneertown, CA USA

Source Neumann KM140's > Beyer MV100 > Sony PCM-M10 > WAV @24/48 + Yamaha SBD > Sony PCM-M10 > WAV @24/48
Lineage WAVs > DP4 > Audacity 1.3.13 (tracking) > xACT 2.13 > FLAC level 8
Taped by morst
Transferred by morst @ digitalist0ne

Notes

*** 24-bit high definition audio - NOT for direct CD burning ***

McCabe & Mrs. Miller
Thursday, September 14, 2011
Pioneertown, CA USA
Pappy & Harriet's Pioneertown Palace - indoor stage

7th Annual Cracker / Camper Van Beethoven Family Reunion Campout

Personnel:
McCabe: Victor Krummenacher - Guitar, Vocals
Mrs. Miller: Alison Levy - Vocals
with:
Doug Hilsinger: Guitar
Jonathan Segel: Violin

P2910757-40p_thumb.jpg P2910904-40p_thumb.jpg P2910907-40p_thumb.jpg
P2910962-40p_thumb.jpg P2910979-40p_thumb.jpg P2910980-40p_thumb.jpg


SHNTOOL:
length expanded size cdr WAVE problems fmt ratio filename
0:45.992 13245740 B cxx -- ---xx flac 0.6153 McMM2011-09-15t01.flac
5:51.676 101282624 B cxx -- ---xx flac 0.6422 McMM2011-09-15t02.flac
4:23.076 75766040 B cxx -- ---xx flac 0.6847 McMM2011-09-15t03.flac
3:30.917 60744272 B cxx -- ---xx flac 0.6603 McMM2011-09-15t04.flac
4:13.917 73128212 B cxx -- ---xx flac 0.7123 McMM2011-09-15t05.flac
5:31.284 95409806 B cxx -- ---xx flac 0.6888 McMM2011-09-15t06.flac
7:35.961 131316746 B cxx -- ---xx flac 0.6529 McMM2011-09-15t07.flac
5:20.329 92254814 B cxx -- ---xx flac 0.6547 McMM2011-09-15t08.flac
5:12.705 90059228 B cxx -- ---xx flac 0.6773 McMM2011-09-15t09.flac
7:04.310 122201216 B cxx -- ---xx flac 0.6850 McMM2011-09-15t10.flac
49:30.168 855408698 B 0.6708 (10 files)

-~-~-~-~-~-~-~-~-~-~-~-~-~-~-~-~-~-~-~-~-~-~-~-~-~-
The Soundscape Preservation Society (Founded 1991)
http://www.iamtypingwithonefinger.com/SPS.html
-~-~-~-~-~-~-~-~-~-~-~-~-~-~-~-~-~-~-~-~-~-~-~-~-~-

comment
Reviews

There are no reviews yet. Be the first one to write a review.
DOWNLOAD OPTIONS
Uploaded by
morst
on 10/11/2011
Views
524
Favorites
2
SIMILAR ITEMS (based on metadata)
eye
Title
Date Archived
Creator
Cracker
by Cracker
etree
eye 1,221
favorite 2
comment 2
favoritefavoritefavoritefavoritefavorite ( 2 reviews )
Source: sbd + KM140s
Victor Krummenacher
etree
eye 163
favorite 1
comment 0
ted quinn
etree
eye 49
favorite 1
comment 0
Source: SBD + AUD mix
Victor Krummenacher
etree
eye 91
favorite 1
comment 0
Source: SBD + AUD mix
Jonathan Segel
etree
eye 450
favorite 4
comment 5
favoritefavoritefavoritefavoritefavorite ( 5 reviews )
Source: SBD + AUD mix
Stephen Brower and the Silent Majority
by Stephen Brower and the Silent Majority
etree
eye 142
favorite 1
comment 0
Source: SBD + AUD mix
Cracker
etree
eye 243
favorite 2
comment 0
Source: SBD + AUD mix @24/48
Camper Van Beethoven
by Camper Van Beethoven
etree
eye 239
favorite 1
comment 0
Source: SBD + AUD mix
Cracker
etree
eye 874
favorite 2
comment 2
favoritefavoritefavoritefavoritefavorite ( 2 reviews )
Source: SBD + AUD
The Dangers
etree
eye 231
favorite 1
comment 0
Source: SBD + AUD mix